KAT - Sing (2016) (1080p BDRip x265 10bit EAC3 5 1 - WEM)[TAoE] mkv

seeders: 420
leechers: 327
updated:
Added ago by ***** in Movies
Torrent Downloaded 0 times.
Info Hash: F395FFD39E56F12CABAA9388B3612647A3157F4D

Download Fast Safe Anonymous
movies, software, shows...

Torrent Files

KAT - Sing (2016) (1080p BDRip x265 10bit EAC3 5 1 - WEM)[TAoE] mkv (Size: )
  Sing (2016) (1080p BDRip x265 10bit EAC3 5 1 - WEM)[TAoE] mkv

Torrent Description







Sing (2016) IMDB














Media Information


General
Unique ID : 209749952332589609301594168960363736566 (0x9DCC5F14463FD439FCB8E3A0333F2DF6)
Complete name : Sing (2016) (1080p BDRip x265 10bit EAC3 5.1 - WEM)[TAoE].mkv
Format : Matroska
Format version : Version 4
File size : 6.38 GiB
Duration : 1 h 47 min
Overall bit rate : 8 461 kb/s
Writing application : Lavf58.45.100
Writing library : Lavf58.45.100
ErrorDetectionType : Per level 1

Video
ID : 1
Format : HEVC
Format/Info : High Efficiency Video Coding
Format profile : Main [email protected]@Main
Codec ID : V_MPEGH/ISO/HEVC
Duration : 1 h 47 min
Bit rate : 7 452 kb/s
Width : 1 920 pixels
Height : 1 024 pixels
Display aspect ratio : 1.85:1
Frame rate mode : Variable
Frame rate : 23.976 FPS
Color space : YUV
Chroma subsampling : 4:2:0
Bit depth : 10 bits
Bits/(Pixel*Frame) : 0.158
Stream size : 5.62 GiB (88%)
Title : Encoded by WEM for TAoE using Shinguru V2.0
Writing library : x265 3.4+2-73ca1d7be377:[Windows][GCC 10.2.1][64 bit] 10bit
Encoding settings : cpuid=1111039 / frame-threads=4 / numa-pools=24 / wpp / no-pmode / no-pme / no-psnr / no-ssim / log-level=2 / input-csp=1 / input-res=1920x1024 / interlace=0 / total-frames=0 / level-idc=0 / high-tier=1 / uhd-bd=0 / ref=4 / no-allow-non-conformance / no-repeat-headers / annexb / no-aud / no-hrd / info / hash=0 / no-temporal-layers / open-gop / min-keyint=23 / keyint=250 / gop-lookahead=0 / bframes=8 / b-adapt=2 / b-pyramid / bframe-bias=0 / rc-lookahead=80 / lookahead-slices=4 / scenecut=40 / hist-scenecut=0 / radl=0 / no-splice / no-intra-refresh / ctu=64 / min-cu-size=8 / no-rect / no-amp / max-tu-size=32 / tu-inter-depth=1 / tu-intra-depth=1 / limit-tu=0 / rdoq-level=2 / dynamic-rd=0.00 / no-ssim-rd / signhide / no-tskip / nr-intra=0 / nr-inter=0 / no-constrained-intra / no-strong-intra-smoothing / max-merge=3 / limit-refs=3 / limit-modes / me=3 / subme=5 / merange=57 / temporal-mvp / no-frame-dup / no-hme / weightp / no-weightb / no-analyze-src-pics / deblock=0:0 / sao / no-sao-non-deblock / rd=4 / selective-sao=4 / no-early-skip / rskip / no-fast-intra / no-tskip-fast / no-cu-lossless / no-b-intra / no-splitrd-skip / rdpenalty=0 / psy-rd=1.30 / psy-rdoq=2.00 / no-rd-refine / no-lossless / cbqpoffs=0 / crqpoffs=0 / rc=crf / crf=18.0 / qcomp=0.60 / qpstep=4 / stats-write=0 / stats-read=0 / ipratio=1.40 / pbratio=1.30 / aq-mode=4 / aq-strength=1.10 / cutree / zone-count=0 / no-strict-cbr / qg-size=32 / no-rc-grain / qpmax=69 / qpmin=0 / no-const-vbv / sar=1 / overscan=0 / videoformat=5 / range=0 / colorprim=2 / transfer=2 / colormatrix=2 / chromaloc=0 / display-window=0 / cll=0,0 / min-luma=0 / max-luma=1023 / log2-max-poc-lsb=8 / vui-timing-info / vui-hrd-info / slices=1 / no-opt-qp-pps / no-opt-ref-list-length-pps / no-multi-pass-opt-rps / scenecut-bias=0.05 / hist-threshold=0.01 / no-opt-cu-delta-qp / no-aq-motion / no-hdr10 / no-hdr10-opt / no-dhdr10-opt / no-idr-recovery-sei / analysis-reuse-level=0 / analysis-save-reuse-level=0 / analysis-load-reuse-level=0 / scale-factor=0 / refine-intra=0 / refine-inter=0 / refine-mv=1 / refine-ctu-distortion=0 / no-limit-sao / ctu-info=0 / no-lowpass-dct / refine-analysis-type=0 / copy-pic=1 / max-ausize-factor=1.0 / no-dynamic-refine / no-single-sei / no-hevc-aq / no-svt / no-field / qp-adaptation-range=1.00 / no-scenecut-aware-qpconformance-window-offsets / right=0 / bottom=0 / decoder-max-rate=0
Language : English
Default : Yes
Forced : No
Color range : Limited

Audio #1
ID : 2
Format : E-AC-3
Format/Info : Enhanced AC-3
Commercial name : Dolby Digital Plus
Codec ID : A_EAC3
Duration : 1 h 47 min
Bit rate mode : Constant
Bit rate : 448 kb/s
Channel(s) : 6 channels
Channel layout : L R C LFE Ls Rs
Sampling rate : 48.0 kHz
Frame rate : 31.250 FPS (1536 SPF)
Bit depth : 24 bits
Compression mode : Lossy
Stream size : 346 MiB (5%)
Writing library : Lavc58.91.100 eac3
Language : English
Service kind : Complete Main
Default : Yes
Forced : No

Audio #2
ID : 3
Format : E-AC-3
Format/Info : Enhanced AC-3
Commercial name : Dolby Digital Plus
Codec ID : A_EAC3
Duration : 1 h 47 min
Bit rate mode : Constant
Bit rate : 448 kb/s
Channel(s) : 6 channels
Channel layout : L R C LFE Ls Rs
Sampling rate : 48.0 kHz
Frame rate : 31.250 FPS (1536 SPF)
Bit depth : 32 bits
Compression mode : Lossy
Stream size : 346 MiB (5%)
Title : Compatibility Track / Dolby Digital Audio / 5.1 / 48 kHz / 640 kbps
Writing library : Lavc58.91.100 eac3
Language : English
Service kind : Complete Main
Default : No
Forced : No

Text #1
ID : 4
Format : PGS
Codec ID : S_HDMV/PGS
Codec ID/Info : Picture based subtitle format used on BDs/HD-DVDs
Duration : 1 h 39 min
Bit rate : 48.1 kb/s
Count of elements : 3466
Stream size : 34.0 MiB (1%)
Title : SDH
Language : English
Default : No
Forced : No

Text #2
ID : 5
Format : PGS
Codec ID : S_HDMV/PGS
Codec ID/Info : Picture based subtitle format used on BDs/HD-DVDs
Duration : 1 h 46 min
Bit rate : 31.6 kb/s
Count of elements : 2724
Stream size : 24.1 MiB (0%)
Language : French
Default : No
Forced : No

Text #3
ID : 6
Format : PGS
Codec ID : S_HDMV/PGS
Codec ID/Info : Picture based subtitle format used on BDs/HD-DVDs
Duration : 1 h 46 min
Bit rate : 32.5 kb/s
Count of elements : 2934
Stream size : 24.8 MiB (0%)
Title : Latin American
Language : Spanish
Default : No
Forced : No

Menu
00:00:00.000 : :Chapter 1
00:04:29.352 : :Chapter 2
00:10:36.469 : :Chapter 3
00:14:04.677 : :Chapter 4
00:18:32.653 : :Chapter 5
00:25:14.722 : :Chapter 6
00:30:04.052 : :Chapter 7
00:35:11.776 : :Chapter 8
00:40:07.405 : :Chapter 9
00:44:36.132 : :Chapter 10
00:50:26.649 : :Chapter 11
00:55:36.208 : :Chapter 12
01:04:40.710 : :Chapter 13
01:14:03.981 : :Chapter 14
01:19:17.962 : :Chapter 15
01:23:59.159 : :Chapter 16
01:26:56.461 : :Chapter 17
01:30:38.266 : :Chapter 18
01:34:47.181 : :Chapter 19
01:40:16.010 : :Chapter 20

Source Information


General
Unique ID : 147337055623251530352124334828084288815 (0x6ED815B12518B62B707E016E50EC5D2F)
Complete name : Sing.2016.1080p.BluRay.REMUX.AVC.Atmos-EPSiLON.mkv
Format : Matroska
Format version : Version 4
File size : 27.6 GiB
Duration : 1 h 47 min
Overall bit rate mode : Variable
Overall bit rate : 36.6 Mb/s
Encoded date : UTC 2017-03-09 11:52:57
Writing application : mkvmerge v9.6.0 ('Slave To Your Mind') 64bit
Writing library : libebml v1.3.4 + libmatroska v1.4.5

Video
ID : 1
Format : AVC
Format/Info : Advanced Video Codec
Format profile : [email protected]
Format settings : CABAC / 4 Ref Frames
Format settings, CABAC : Yes
Format settings, Reference frames : 4 frames
Codec ID : V_MPEG4/ISO/AVC
Duration : 1 h 47 min
Bit rate mode : Variable
Bit rate : 30.9 Mb/s
Maximum bit rate : 35.0 Mb/s
Width : 1 920 pixels
Height : 1 080 pixels
Display aspect ratio : 16:9
Frame rate mode : Constant
Frame rate : 23.976 (24000/1001) FPS
Color space : YUV
Chroma subsampling : 4:2:0
Bit depth : 8 bits
Scan type : Progressive
Bits/(Pixel*Frame) : 0.621
Stream size : 23.3 GiB (84%)
Title : MPEG-4 AVC Video / 30995 kbps / 1080p / 23.976 fps / 16:9 / High Profile 4.1
Language : English
Default : Yes
Forced : No

Audio #1
ID : 2
Format : MLP FBA 16-ch
Format/Info : Meridian Lossless Packing FBA with 16-channel presentation
Commercial name : Dolby TrueHD with Dolby Atmos
Codec ID : A_TRUEHD
Duration : 1 h 47 min
Bit rate mode : Variable
Bit rate : 4 888 kb/s
Maximum bit rate : 8 139 kb/s
Channel(s) : 8 channels
Channel layout : L R C LFE Ls Rs Lb Rb
Sampling rate : 48.0 kHz
Frame rate : 1 200.000 FPS (40 SPF)
Compression mode : Lossless
Stream size : 3.68 GiB (13%)
Language : English
Default : Yes
Forced : No
Number of dynamic objects : 11
Bed channel count : 1 channel
Bed channel configuration : LFE

Audio #2
ID : 3
Format : AC-3
Format/Info : Audio Coding 3
Commercial name : Dolby Digital
Codec ID : A_AC3
Duration : 1 h 47 min
Bit rate mode : Constant
Bit rate : 640 kb/s
Channel(s) : 6 channels
Channel layout : L R C LFE Ls Rs
Sampling rate : 48.0 kHz
Frame rate : 31.250 FPS (1536 SPF)
Compression mode : Lossy
Stream size : 494 MiB (2%)
Title : Compatibility Track / Dolby Digital Audio / 5.1 / 48 kHz / 640 kbps
Language : English
Service kind : Complete Main
Default : No
Forced : No

Text #1
ID : 4
Format : PGS
Codec ID : S_HDMV/PGS
Codec ID/Info : Picture based subtitle format used on BDs/HD-DVDs
Duration : 1 h 39 min
Bit rate : 48.1 kb/s
Count of elements : 3466
Stream size : 34.0 MiB (0%)
Title : SDH
Language : English
Default : No
Forced : No

Text #2
ID : 5
Format : PGS
Codec ID : S_HDMV/PGS
Codec ID/Info : Picture based subtitle format used on BDs/HD-DVDs
Duration : 1 h 46 min
Bit rate : 31.6 kb/s
Count of elements : 2724
Stream size : 24.1 MiB (0%)
Language : French
Default : No
Forced : No

Text #3
ID : 6
Format : PGS
Codec ID : S_HDMV/PGS
Codec ID/Info : Picture based subtitle format used on BDs/HD-DVDs
Duration : 1 h 46 min
Bit rate : 32.5 kb/s
Count of elements : 2934
Stream size : 24.8 MiB (0%)
Title : Latin American
Language : Spanish
Default : No
Forced : No

Menu
00:00:00.000 : en:Chapter 1
00:04:29.352 : en:Chapter 2
00:10:36.469 : en:Chapter 3
00:14:04.677 : en:Chapter 4
00:18:32.653 : en:Chapter 5
00:25:14.722 : en:Chapter 6
00:30:04.052 : en:Chapter 7
00:35:11.776 : en:Chapter 8
00:40:07.405 : en:Chapter 9
00:44:36.132 : en:Chapter 10
00:50:26.649 : en:Chapter 11
00:55:36.208 : en:Chapter 12
01:04:40.710 : en:Chapter 13
01:14:03.981 : en:Chapter 14
01:19:17.962 : en:Chapter 15
01:23:59.159 : en:Chapter 16
01:26:56.461 : en:Chapter 17
01:30:38.266 : en:Chapter 18
01:34:47.181 : en:Chapter 19
01:40:16.010 : en:Chapter 20



Related Torrents

torrent name size age seed leech
19 minutes 749 251
23 minutes 797 461
23 minutes 452 42
23 minutes 257 160
27 minutes 628 114

Sharing Widget


Download torrent
seeders:243
leechers:438
Sing (2016) (1080p BDRip x265 10bit EAC3 5 1 - WEM)[TAoE] mkv



To share this torrent use the code below and insert it into comments, status messages, forum posts or your signature.

Torrent: Sing (2016) (1080p BDRip x265 10bit EAC3 5 1 - WEM)[TAoE] mkv

Comments

Latest Searches