KAT - The Fifth Element (1997) REMASTERED (2160p HDR BDRip x265 10bit TrueHD 7 1 Atmos + AC3 5 1 - Goki)[TAoE]

seeders: 30
leechers: 121
updated:
Added ago by ***** in Movies
Torrent Downloaded 0 times.
Info Hash: 37F7940D8017C1EE9144E74C8EDBD3D675D82A72

Download Fast Safe Anonymous
movies, software, shows...

Torrent Files

KAT - The Fifth Element (1997) REMASTERED (2160p HDR BDRip x265 10bit TrueHD 7 1 Atmos + AC3 5 1 - Goki)[TAoE] (Size: )
  The Fifth Element (1997) REMASTERED (2160p HDR BDRip x265 10bit TrueHD 7 1 Atmos + AC3 5 1 - Goki)[TAoE]

Torrent Description








The Fifth Element (1997) IMDB

Note: Screenshots have been SDR tonemapped, it should give you a general idea of what a title will look like, though it's not representative of the true quality.














Encode Media Information



General
Unique ID : 228293675443238712962736525356428648693 (0xABBFC33776504A559C992300E6C760F5)
Complete name : The Fifth Element (1997) REMASTERED (2160p HDR BDRip x265 10bit TrueHD 7.1 Atmos + AC3 5.1 - Goki)[TAoE].mkv
Format : Matroska
Format version : Version 4
File size : 31.9 GiB
Duration : 2 h 5 min
Overall bit rate mode : Variable
Overall bit rate : 36.2 Mb/s
Writing application : Lavf58.29.100
Writing library : Lavf58.29.100
ErrorDetectionType : Per level 1

Video
ID : 1
Format : HEVC
Format/Info : High Efficiency Video Coding
Format profile : Main [email protected]@High
HDR format : SMPTE ST 2086, HDR10 compatible
Codec ID : V_MPEGH/ISO/HEVC
Duration : 2 h 5 min
Bit rate : 29.8 Mb/s
Width : 3 840 pixels
Height : 1 600 pixels
Display aspect ratio : 2.40:1
Frame rate mode : Constant
Frame rate : 23.976 (24000/1001) FPS
Color space : YUV
Chroma subsampling : 4:2:0 (Type 2)
Bit depth : 10 bits
Bits/(Pixel*Frame) : 0.202
Stream size : 26.2 GiB (82%)
Title : Encoded by Goki for TAoE using Iro V2.1
Writing library : x265 3.3+29-1e3dbf09ee4f:[Windows][GCC 9.3.1][64 bit] 10bit
Encoding settings : cpuid=1111039 / frame-threads=4 / numa-pools=24 / wpp / no-pmode / no-pme / no-psnr / no-ssim / log-level=2 / input-csp=1 / input-res=3840x1600 / interlace=0 / total-frames=0 / level-idc=51 / high-tier=1 / uhd-bd=0 / ref=4 / no-allow-non-conformance / repeat-headers / annexb / no-aud / no-hrd / info / hash=0 / no-temporal-layers / open-gop / min-keyint=23 / keyint=250 / gop-lookahead=0 / bframes=8 / b-adapt=2 / b-pyramid / bframe-bias=0 / rc-lookahead=80 / lookahead-slices=4 / scenecut=40 / hist-scenecut=0 / radl=0 / no-splice / no-intra-refresh / ctu=64 / min-cu-size=8 / no-rect / no-amp / max-tu-size=32 / tu-inter-depth=1 / tu-intra-depth=1 / limit-tu=0 / rdoq-level=2 / dynamic-rd=0.00 / no-ssim-rd / signhide / no-tskip / nr-intra=0 / nr-inter=0 / no-constrained-intra / no-strong-intra-smoothing / max-merge=3 / limit-refs=3 / limit-modes / me=3 / subme=5 / merange=57 / temporal-mvp / no-frame-dup / no-hme / weightp / no-weightb / no-analyze-src-pics / deblock=0:0 / sao / no-sao-non-deblock / rd=4 / selective-sao=4 / no-early-skip / rskip / no-fast-intra / no-tskip-fast / no-cu-lossless / no-b-intra / no-splitrd-skip / rdpenalty=0 / psy-rd=1.30 / psy-rdoq=2.00 / no-rd-refine / no-lossless / cbqpoffs=0 / crqpoffs=0 / rc=crf / crf=19.0 / qcomp=0.60 / qpstep=4 / stats-write=0 / stats-read=0 / vbv-maxrate=160000 / vbv-bufsize=160000 / vbv-init=0.9 / crf-max=0.0 / crf-min=0.0 / ipratio=1.40 / pbratio=1.30 / aq-mode=4 / aq-strength=1.10 / cutree / zone-count=0 / no-strict-cbr / qg-size=32 / no-rc-grain / qpmax=69 / qpmin=0 / no-const-vbv / sar=1 / overscan=0 / videoformat=5 / range=0 / colorprim=9 / transfer=16 / colormatrix=9 / chromaloc=1 / chromaloc-top=2 / chromaloc-bottom=2 / display-window=0 / master-display=G(13250,34500)B(7500,3000)R(34000,16000)WP(15635,16450)L(40000000,050) / cll=10000,724 / min-luma=0 / max-luma=1023 / log2-max-poc-lsb=8 / vui-timing-info / vui-hrd-info / slices=1 / no-opt-qp-pps / no-opt-ref-list-length-pps / no-multi-pass-opt-rps / scenecut-bias=0.05 / hist-threshold=0.01 / no-opt-cu-delta-qp / no-aq-motion / hdr10 / hdr10-opt / no-dhdr10-opt / no-idr-recovery-sei / analysis-reuse-level=0 / analysis-save-reuse-level=0 / analysis-load-reuse-level=0 / scale-factor=0 / refine-intra=0 / refine-inter=0 / refine-mv=1 / refine-ctu-distortion=0 / no-limit-sao / ctu-info=0 / no-lowpass-dct / refine-analysis-type=0 / copy-pic=1 / max-ausize-factor=1.0 / no-dynamic-refine / no-single-sei / no-hevc-aq / no-svt / no-field / qp-adaptation-range=1.00 / no-scenecut-aware-qpconformance-window-offsets / right=0 / bottom=0 / decoder-max-rate=0
Default : Yes
Forced : No
Color range : Limited
Color primaries : BT.2020
Transfer characteristics : PQ
Matrix coefficients : BT.2020 non-constant
Mastering display color primaries : Display P3
Mastering display luminance : min: 0.0050 cd/m2, max: 4000 cd/m2
Maximum Content Light Level : 10000 cd/m2
Maximum Frame-Average Light Level : 724 cd/m2

Audio #1
ID : 2
Format : MLP FBA 16-ch
Format/Info : Meridian Lossless Packing FBA with 16-channel presentation
Commercial name : Dolby TrueHD with Dolby Atmos
Codec ID : A_TRUEHD
Duration : 2 h 5 min
Bit rate mode : Variable
Bit rate : 5 666 kb/s
Maximum bit rate : 9 144 kb/s
Channel(s) : 8 channels
Channel layout : L R C LFE Ls Rs Lb Rb
Sampling rate : 48.0 kHz
Frame rate : 1 200.000 FPS (40 SPF)
Bit depth : 24 bits
Compression mode : Lossless
Delay relative to video : 1 ms
Stream size : 4.98 GiB (16%)
Language : English
Default : Yes
Forced : No
Number of dynamic objects : 11
Bed channel count : 1 channel
Bed channel configuration : LFE

Audio #2
ID : 3
Format : AC-3
Format/Info : Audio Coding 3
Commercial name : Dolby Digital
Codec ID : A_AC3
Duration : 2 h 5 min
Bit rate mode : Constant
Bit rate : 640 kb/s
Channel(s) : 6 channels
Channel layout : L R C LFE Ls Rs
Sampling rate : 48.0 kHz
Frame rate : 31.250 FPS (1536 SPF)
Bit depth : 32 bits
Compression mode : Lossy
Delay relative to video : 1 ms
Stream size : 576 MiB (2%)
Language : English
Service kind : Complete Main
Default : No
Forced : No

Text #1
ID : 4
Format : UTF-8
Codec ID : S_TEXT/UTF8
Codec ID/Info : UTF-8 Plain Text
Duration : 1 h 58 min
Bit rate : 57 b/s
Count of elements : 1473
Stream size : 49.5 KiB (0%)
Title : English-SRT
Language : English
Default : No
Forced : No

Text #2
ID : 5
Format : UTF-8
Codec ID : S_TEXT/UTF8
Codec ID/Info : UTF-8 Plain Text
Duration : 2 h 5 min
Bit rate : 62 b/s
Count of elements : 1832
Stream size : 57.7 KiB (0%)
Title : English-SDH-SRT
Language : English
Default : No
Forced : No

Text #3
ID : 6
Format : PGS
Codec ID : S_HDMV/PGS
Codec ID/Info : Picture based subtitle format used on BDs/HD-DVDs
Duration : 1 h 58 min
Bit rate : 32.3 kb/s
Count of elements : 2943
Stream size : 27.3 MiB (0%)
Title : English-PGS
Language : English
Default : No
Forced : No

Text #4
ID : 7
Format : PGS
Codec ID : S_HDMV/PGS
Codec ID/Info : Picture based subtitle format used on BDs/HD-DVDs
Duration : 2 h 5 min
Bit rate : 36.4 kb/s
Count of elements : 3661
Stream size : 32.6 MiB (0%)
Title : English-SDH-PGS
Language : English
Default : No
Forced : No

Text #5
ID : 8
Format : UTF-8
Codec ID : S_TEXT/UTF8
Codec ID/Info : UTF-8 Plain Text
Duration : 2 h 2 min
Bit rate : 38 b/s
Count of elements : 1211
Stream size : 34.5 KiB (0%)
Title : French-SRT
Language : French
Default : No
Forced : No

Text #6
ID : 9
Format : UTF-8
Codec ID : S_TEXT/UTF8
Codec ID/Info : UTF-8 Plain Text
Duration : 1 h 59 min
Bit rate : 50 b/s
Count of elements : 1432
Stream size : 44.7 KiB (0%)
Title : Spanish-SRT
Language : Spanish
Default : No
Forced : No

Menu
00:00:00.000 : :Chapter 1
00:02:36.489 : :Chapter 2
00:12:11.772 : :Chapter 3
00:24:17.539 : :Chapter 4
00:32:14.682 : :Chapter 5
00:40:05.277 : :Chapter 6
00:48:16.810 : :Chapter 7
00:53:23.241 : :Chapter 8
01:00:16.613 : :Chapter 9
01:07:17.033 : :Chapter 10
01:11:16.730 : :Chapter 11
01:21:54.659 : :Chapter 12
01:27:25.657 : :Chapter 13
01:38:29.778 : :Chapter 14
01:46:35.347 : :Chapter 15
01:52:26.364 : :Chapter 16

Source Media Information



General
Unique ID : 1559769707006448295896689564674868937 (0x12C66957CF3401A75BF5E0ABA7AC6C9)
Complete name : The.Fifth.Element.1997.2160p.mkv
Format : Matroska
Format version : Version 4
File size : 50.7 GiB
Duration : 2 h 5 min
Overall bit rate mode : Variable
Overall bit rate : 57.7 Mb/s
Encoded date : UTC 2020-09-14 13:57:45
Writing application : mkvmerge v28.2.0 ('The Awakening') 64-bit
Writing library : libebml v1.3.6 + libmatroska v1.4.9

Video
ID : 1
Format : HEVC
Format/Info : High Efficiency Video Coding
Format profile : Main [email protected]@High
HDR format : SMPTE ST 2086, HDR10 compatible
Codec ID : V_MPEGH/ISO/HEVC
Duration : 2 h 5 min
Bit rate : 51.2 Mb/s
Width : 3 840 pixels
Height : 2 160 pixels
Display aspect ratio : 16:9
Frame rate mode : Constant
Frame rate : 23.976 (24000/1001) FPS
Color space : YUV
Chroma subsampling : 4:2:0 (Type 2)
Bit depth : 10 bits
Bits/(Pixel*Frame) : 0.258
Stream size : 45.0 GiB (89%)
Title : The.Fifth.Element.1997.2160p.BluRay.REMUX.HEVC.DTS-HD.MA.TrueHD.7.1.Atmos-FGT
Default : Yes
Forced : No
Color range : Limited
Color primaries : BT.2020
Transfer characteristics : PQ
Matrix coefficients : BT.2020 non-constant
Mastering display color primaries : Display P3
Mastering display luminance : min: 0.0050 cd/m2, max: 4000 cd/m2
Maximum Content Light Level : 10000 cd/m2
Maximum Frame-Average Light Level : 724 cd/m2

Audio #1
ID : 2
Format : MLP FBA 16-ch
Format/Info : Meridian Lossless Packing FBA with 16-channel presentation
Commercial name : Dolby TrueHD with Dolby Atmos
Codec ID : A_TRUEHD
Duration : 2 h 5 min
Bit rate mode : Variable
Bit rate : 5 666 kb/s
Maximum bit rate : 9 144 kb/s
Channel(s) : 8 channels
Channel layout : L R C LFE Ls Rs Lb Rb
Sampling rate : 48.0 kHz
Frame rate : 1 200.000 FPS (40 SPF)
Compression mode : Lossless
Delay relative to video : 1 ms
Stream size : 4.98 GiB (10%)
Language : English
Default : Yes
Forced : No
Number of dynamic objects : 11
Bed channel count : 1 channel
Bed channel configuration : LFE

Audio #2
ID : 3
Format : AC-3
Format/Info : Audio Coding 3
Commercial name : Dolby Digital
Codec ID : A_AC3
Duration : 2 h 5 min
Bit rate mode : Constant
Bit rate : 640 kb/s
Channel(s) : 6 channels
Channel layout : L R C LFE Ls Rs
Sampling rate : 48.0 kHz
Frame rate : 31.250 FPS (1536 SPF)
Compression mode : Lossy
Delay relative to video : 1 ms
Stream size : 576 MiB (1%)
Language : English
Service kind : Complete Main
Default : No
Forced : No

Text #1
ID : 4
Format : UTF-8
Codec ID : S_TEXT/UTF8
Codec ID/Info : UTF-8 Plain Text
Duration : 1 h 58 min
Bit rate : 57 b/s
Count of elements : 1473
Stream size : 49.5 KiB (0%)
Title : English-SRT
Language : English
Default : No
Forced : No

Text #2
ID : 5
Format : UTF-8
Codec ID : S_TEXT/UTF8
Codec ID/Info : UTF-8 Plain Text
Duration : 2 h 5 min
Bit rate : 62 b/s
Count of elements : 1832
Stream size : 57.7 KiB (0%)
Title : English-SDH-SRT
Language : English
Default : No
Forced : No

Text #3
ID : 6
Format : PGS
Codec ID : S_HDMV/PGS
Codec ID/Info : Picture based subtitle format used on BDs/HD-DVDs
Duration : 1 h 58 min
Bit rate : 32.3 kb/s
Count of elements : 2943
Stream size : 27.3 MiB (0%)
Title : English-PGS
Language : English
Default : No
Forced : No

Text #4
ID : 7
Format : PGS
Codec ID : S_HDMV/PGS
Codec ID/Info : Picture based subtitle format used on BDs/HD-DVDs
Duration : 2 h 5 min
Bit rate : 36.4 kb/s
Count of elements : 3661
Stream size : 32.6 MiB (0%)
Title : English-SDH-PGS
Language : English
Default : No
Forced : No

Text #5
ID : 8
Format : UTF-8
Codec ID : S_TEXT/UTF8
Codec ID/Info : UTF-8 Plain Text
Duration : 2 h 2 min
Bit rate : 38 b/s
Count of elements : 1211
Stream size : 34.5 KiB (0%)
Title : French-SRT
Language : French
Default : No
Forced : No

Text #6
ID : 9
Format : UTF-8
Codec ID : S_TEXT/UTF8
Codec ID/Info : UTF-8 Plain Text
Duration : 1 h 59 min
Bit rate : 50 b/s
Count of elements : 1432
Stream size : 44.7 KiB (0%)
Title : Spanish-SRT
Language : Spanish
Default : No
Forced : No

Menu
00:00:00.000 : en:Chapter 1
00:02:36.489 : en:Chapter 2
00:12:11.772 : en:Chapter 3
00:24:17.539 : en:Chapter 4
00:32:14.682 : en:Chapter 5
00:40:05.277 : en:Chapter 6
00:48:16.810 : en:Chapter 7
00:53:23.241 : en:Chapter 8
01:00:16.613 : en:Chapter 9
01:07:17.033 : en:Chapter 10
01:11:16.730 : en:Chapter 11
01:21:54.659 : en:Chapter 12
01:27:25.657 : en:Chapter 13
01:38:29.778 : en:Chapter 14
01:46:35.347 : en:Chapter 15
01:52:26.364 : en:Chapter 16



Related Torrents

torrent name size age seed leech
12 minutes 62 64
12 minutes 661 375
12 minutes 742 165
23 minutes 177 197
23 minutes 89 281

Sharing Widget


Download torrent
seeders:30
leechers:29
The Fifth Element (1997) REMASTERED (2160p HDR BDRip x265 10bit TrueHD 7 1 Atmos + AC3 5 1 - Goki)[TAoE]



To share this torrent use the code below and insert it into comments, status messages, forum posts or your signature.

Torrent: The Fifth Element (1997) REMASTERED (2160p HDR BDRip x265 10bit TrueHD 7 1 Atmos + AC3 5 1 - Goki)[TAoE]

Comments

Latest Searches